быстрый битторрент трекер  
быстрый битторрент трекер быстрый битторрент трекер быстрый битторрент трекер
быстрый битторрент трекер
фильмы
сериалы
мультфильмы
аниме
книги
музыка
игры
софт

Вернуться   Торрент трекер EsTorrent Скачать торент фильмы игры музыку книги > Музыка > Джаз и Блюз > Музыка без потери качества (lossless)
Регистрация

Ответ Нравится
 
Опции темы Поиск в этой теме
Старый 12.06.2008, 15:59   #1
Upstream
Главный болтун
 
Аватар для Upstream
Релизер 

Dave Brubeck
Indian Summer


Год выпуска: 2007
Формат: FLAC (image + .cue)
Качество: lossless
Сканы: Нет

Описание: В 86 лет Дэйв Брубек записал соло-альбом, состоящий исключительно из баллад для пиано. Релиз Telarc CD-83670
Треклист
1. You'll Never Know 4:42
2. I'm Alone 5:18
3. Autumn In Our Town 4:55
4. So Lonely 3:15
5. I'm Afraid The Masquerade Is Over 4:14
6. I Don't Stand A Ghost Of A Chance With You 4:20
7. Pacific Hail 4:21
8. September Song 4:43
9. Summer Song 4:15
10. Thank You 5:04
11. Georgia On My Mind 4:30
12. Spring Is Here 3:58
13. Sweet Lorraine 4:43
14. Memories Of You 4:16
15. This Love of Mine 3:56
16. Indian Summer 4:53


Дополнительно:
Отчет ЕАС


Exact Audio Copy V0.99 prebeta 3 from 28. July 2007

Отчёт EAC об извлечении, выполненном 8. марта 2008, 1:56

Brubeck, Dave / Indian Summer

Дисковод: TOSHIBA DVD-ROM SD-M1712 Adapter: 0 ID: 3

Режим чтения : Достоверность
Использование точного потока : Да
Отключение кэша аудио : Да
Использование указателей C2 : Нет

Коррекция смещения при чтении : -472
Способность читать области Lead-in и Lead-out : Нет
Заполнение пропущенных сэмплов тишиной : Да
Удаление блоков с тишиной в начале и конце : Нет
При вычислениях CRC использовались нулевые сэмплы : Да
Интерфейс : Установленный внешний ASPI-интерфейс

Выходной формат : Пользовательский кодировщик
Выбранный битрейт : 768 kBit/s
Качество : Высокий
Добавление ID3-тэга : Нет
Утилита сжатия : C:\Program Files\Exact Audio Copy\FLAC\FLAC.EXE
Дополнительные параметры : -6 -V -T "ARTIST=%a" -T "TITLE=%t" -T "ALBUM=%g" -T "DATE=%y" -T "TRACKNUMBER=%n" -T "GENRE=%m" -T "COMMENT=%e" %s -o %d

TOC извлечённого CD

Трек | Старт | Длительность | Начальный сектор | Конечный сектор
---------------------------------------------------------------------
1 | 0:00.00 | 4:42.53 | 0 | 21202
2 | 4:42.53 | 5:18.61 | 21203 | 45113
3 | 10:01.39 | 4:55.25 | 45114 | 67263
4 | 14:56.64 | 3:15.45 | 67264 | 81933
5 | 18:12.34 | 4:14.09 | 81934 | 100992
6 | 22:26.43 | 4:20.47 | 100993 | 120539
7 | 26:47.15 | 4:21.13 | 120540 | 140127
8 | 31:08.28 | 4:43.55 | 140128 | 161407
9 | 35:52.08 | 4:15.70 | 161408 | 180602
10 | 40:08.03 | 5:04.55 | 180603 | 203457
11 | 45:12.58 | 4:30.41 | 203458 | 223748
12 | 49:43.24 | 3:58.58 | 223749 | 241656
13 | 53:42.07 | 4:43.09 | 241657 | 262890
14 | 58:25.16 | 4:16.29 | 262891 | 282119
15 | 62:41.45 | 3:56.15 | 282120 | 299834
16 | 66:37.60 | 4:53.23 | 299835 | 321832

Характеристики диапазона извлечения и сообщения об ошибках

Выбранный диапазон

Имя файла G:\My Docs 2\My Music 2\Dave Brubeck - Indian Summer\Dave Brubeck - Indian Summer.wav

Пиковый уровень 98.7 %
Качество диапазона 100.0 %
CRC копии 7C6C2B56
Копирование... OK

Ошибок не произошло

Конец отчёта
Вложения
Вы должны войти или зарегистрироваться, что бы видеть вложения.
Оплаченная реклама

Понравилась тема?
Проголосуй за нас и получи +500Мб к "Отдано"!

 

Upstream вне форума   Ответить с цитированием
2 пользователя(ей) сказали cпасибо:
g60 (07.04.2014), юрца (28.02.2011)
Старый 06.09.2008, 18:34   #2
xtemax
Гость
 
Аватар для xtemax

Очень хороший альбом! Жаль,что такой музыки очень мало... Все так громко играют, а это тихо и спокойно.
  Ответить с цитированием
Старый 12.09.2008, 13:55   #3
xbggjkbyj
Гость
 
Аватар для xbggjkbyj

хороший альбом!!!
  Ответить с цитированием
Старый 20.11.2013, 15:07   #4
Jeff475
Местный
 
Аватар для Jeff475

Раздача мёртвая. Очень жаль.
Jeff475 вне форума   Ответить с цитированием
Ответ

Закладки

Метки
2007, dave brubeck, indian summer


Здесь присутствуют: 1 (пользователей: 0 , гостей: 1)
 
Опции темы Поиск в этой теме
Поиск в этой теме:

Расширенный поиск

Ваши права в разделе
Вы не можете создавать новые темы
Вы не можете отвечать в темах
Вы не можете прикреплять вложения
Вы не можете редактировать свои сообщения

BB коды Вкл.
Смайлы Вкл.
[IMG] код Вкл.
HTML код Выкл.


Похожие темы
Тема Автор Раздел Ответов Последнее сообщение
Symfomania - Empire (2009) FLAC (image+.cue) lossless EVilGENIus Музыка без потери качества (lossless) 1 28.12.2010 18:49
Братья Жигновские - 5 CD (2004 - 2007) - 2010, FLAC (image+.cue), lossless felix78 Музыка других жанров 0 06.09.2010 14:34
(Ambient, Chillout, Downtempo) Blank & Jones - 2007 - Relax (Edition One, Edition Two, Edition Three) 6CD, FLAC (image + .cue), lossless Upstream Музыка без потери качества (lossless) 2 19.03.2010 06:06
Bachman-Turner Overdrive (BTO) - The Anthology (2-CD)- 1993 - 2005, FLAC (image+.cue), lossless Upstream Музыка без потери качества (lossless) 0 07.11.2009 15:51
(Ambient, Downtempo, Dub) VA - Future Memories - 2008, FLAC (image + .cue), lossless Upstream Музыка без потери качества (lossless) 0 25.05.2008 13:05


  
vВullеtin®, Соруright ©2000-2009, Jеlsоft Еntеrрrisеs Ltd. Перевод: zCarot
Страница с благодарностями